Comment 12 for bug 164265

In addition to my last mail, the original file shows the iTunes version in
the comment field, the transferred file shows 'Lavf1d.51.10.0'.

Here's some command output for the transferred file:

joss@laptop:~$ ffmpeg -i /home/joss/Desktop/01\ Love\ Me\ Do.m4a
FFmpeg version SVN-rUNKNOWN, Copyright (c) 2000-2007 Fabrice Bellard, et al.
  configuration: --enable-gpl --enable-pp --enable-swscaler
--enable-pthreads --enable-libvorbis --enable-libtheora --enable-libogg
--enable-libgsm --enable-dc1394 --disable-debug --enable-shared
--prefix=/usr
  libavutil version: 1d.49.3.0
  libavcodec version: 1d.51.38.0
  libavformat version: 1d.51.10.0
  built on Mar 12 2008 14:31:53, gcc: 4.2.3 (Ubuntu 4.2.3-2ubuntu4)
Input #0, mov,mp4,m4a,3gp,3g2,mj2, from '/home/joss/Desktop/01 Love Me
Do.m4a':
  Duration: 00:02:21.1, start: 0.000000, bitrate: 114 kb/s
  Stream #0.0(und): Audio: mp4a / 0x6134706D, 44100 Hz, stereo

and the same output for the original file:

joss@laptop:~$ ffmpeg -i /home/joss/Desktop/01\ Love\ Me\ Do.m4a
FFmpeg version SVN-rUNKNOWN, Copyright (c) 2000-2007 Fabrice Bellard, et al.
  configuration: --enable-gpl --enable-pp --enable-swscaler
--enable-pthreads --enable-libvorbis --enable-libtheora --enable-libogg
--enable-libgsm --enable-dc1394 --disable-debug --enable-shared
--prefix=/usr
  libavutil version: 1d.49.3.0
  libavcodec version: 1d.51.38.0
  libavformat version: 1d.51.10.0
  built on Mar 12 2008 14:31:53, gcc: 4.2.3 (Ubuntu 4.2.3-2ubuntu4)
Input #0, mov,mp4,m4a,3gp,3g2,mj2, from '/home/joss/Desktop/01 Love Me
Do.m4a':
  Duration: 00:02:20.7, start: 0.000000, bitrate: 193 kb/s
  Stream #0.0(und): Audio: mp4a / 0x6134706D, 44100 Hz, stereo

As you can see, the bitrate is lower on the transferred file.

Hope that helps someone!

Joss

On Thu, Mar 13, 2008 at 12:35 PM, Basilio Kublik <email address hidden>
wrote:

> Hi there
> Thank you for taking the time to report this bug and helping to make
> Ubuntu better. You reported this bug a while ago and there hasn't been any
> activity in it recently. We were wondering is this still an issue for you?
> Can you try with the development branch of Ubuntu, Hardy Heron?
>
> Thanks in advance.
>
> --
> Transferring AAC files to iPod is broken
> https://bugs.launchpad.net/bugs/164265
> You received this bug notification because you are a direct subscriber
> of the bug.
>