Import of video file renders white image

Bug #1709883 reported by Jens Buysse on 2017-08-10
6
This bug affects 1 person
Affects Status Importance Assigned to Milestone
OpenShot Video Editor
Undecided
Unassigned

Bug Description

I made some videos with my Parrot Bebop2 drone. I cannot seem to import the files into the editor: the previews is just a white image. The length etc. is loaded correctly and I do not get any warnings or errors.

- Architecture: 64 Bit
- Ubuntu 16.04. LTS
- Openshot version : OpenShot 1.4.3

The file information is the following :

ffprobe -show_streams Bebop2.mp4
ffprobe version 2.8.11-0ubuntu0.16.04.1 Copyright (c) 2007-2017 the FFmpeg developers
  built with gcc 5.4.0 (Ubuntu 5.4.0-6ubuntu1~16.04.4) 20160609
  configuration: --prefix=/usr --extra-version=0ubuntu0.16.04.1 --build-suffix=-ffmpeg --toolchain=hardened --libdir=/usr/lib/x86_64-linux-gnu --incdir=/usr/include/x86_64-linux-gnu --cc=cc --cxx=g++ --enable-gpl --enable-shared --disable-stripping --disable-decoder=libopenjpeg --disable-decoder=libschroedinger --enable-avresample --enable-avisynth --enable-gnutls --enable-ladspa --enable-libass --enable-libbluray --enable-libbs2b --enable-libcaca --enable-libcdio --enable-libflite --enable-libfontconfig --enable-libfreetype --enable-libfribidi --enable-libgme --enable-libgsm --enable-libmodplug --enable-libmp3lame --enable-libopenjpeg --enable-libopus --enable-libpulse --enable-librtmp --enable-libschroedinger --enable-libshine --enable-libsnappy --enable-libsoxr --enable-libspeex --enable-libssh --enable-libtheora --enable-libtwolame --enable-libvorbis --enable-libvpx --enable-libwavpack --enable-libwebp --enable-libx265 --enable-libxvid --enable-libzvbi --enable-openal --enable-opengl --enable-x11grab --enable-libdc1394 --enable-libiec61883 --enable-libzmq --enable-frei0r --enable-libx264 --enable-libopencv
  libavutil 54. 31.100 / 54. 31.100
  libavcodec 56. 60.100 / 56. 60.100
  libavformat 56. 40.101 / 56. 40.101
  libavdevice 56. 4.100 / 56. 4.100
  libavfilter 5. 40.101 / 5. 40.101
  libavresample 2. 1. 0 / 2. 1. 0
  libswscale 3. 1.101 / 3. 1.101
  libswresample 1. 2.101 / 1. 2.101
  libpostproc 53. 3.100 / 53. 3.100
[mov,mp4,m4a,3gp,3g2,mj2 @ 0xe6ad00] stream 0, timescale not set
[mjpeg @ 0xe6c0e0] Changeing bps to 8
[mov,mp4,m4a,3gp,3g2,mj2 @ 0xe6ad00] Stream #0: not enough frames to estimate rate; consider increasing probesize
Input #0, mov,mp4,m4a,3gp,3g2,mj2, from 'Bebop2.mp4':
  Metadata:
    major_brand : isom
    minor_version : 512
    compatible_brands: isomiso2mp41avc1
    location : +51.2549+002.9820/
    location-eng : +51.2549+002.9820/
    artist : Bebop2-B052303
    title : 2017-07-27T144747+0200
    date : 2017-07-27T144747+0200
    make : Parrot
    model : Bebop 2
    encoder : PI040384AB6B052303
    creation_time : 2017-07-27 12:47:47
  Duration: 00:03:58.63, start: 0.000000, bitrate: 20036 kb/s
    Stream #0:0: Video: mjpeg, yuvj420p(pc, bt470bg/unknown/unknown), 800x450, 90k tbr, 90k tbn, 90k tbc
    Stream #0:1(und): Video: h264 (Main) (avc1 / 0x31637661), yuv420p, 1920x1080, 20000 kb/s, 29.98 fps, 29.97 tbr, 60k tbn, 59.94 tbc (default)
    Metadata:
      creation_time : 2017-07-27 12:47:47
    Stream #0:2(und): Data: none (mett / 0x7474656D), 23 kb/s (default)
    Metadata:
      creation_time : 2017-07-27 12:47:47
Unsupported codec with id 0 for input stream 2
[STREAM]
index=0
codec_name=mjpeg
codec_long_name=MJPEG (Motion JPEG)
profile=unknown
codec_type=video
codec_time_base=1/90000
codec_tag_string=[0][0][0][0]
codec_tag=0x0000
width=800
height=450
coded_width=800
coded_height=450
has_b_frames=0
sample_aspect_ratio=0:1
display_aspect_ratio=0:1
pix_fmt=yuvj420p
level=-99
color_range=pc
color_space=bt470bg
color_transfer=unknown
color_primaries=unknown
chroma_location=center
timecode=N/A
refs=1
id=N/A
r_frame_rate=90000/1
avg_frame_rate=0/0
time_base=1/90000
start_pts=0
start_time=0.000000
duration_ts=21476498
duration=238.627756
bit_rate=N/A
max_bit_rate=N/A
bits_per_raw_sample=8
nb_frames=N/A
nb_read_frames=N/A
nb_read_packets=N/A
DISPOSITION:default=0
DISPOSITION:dub=0
DISPOSITION:original=0
DISPOSITION:comment=0
DISPOSITION:lyrics=0
DISPOSITION:karaoke=0
DISPOSITION:forced=0
DISPOSITION:hearing_impaired=0
DISPOSITION:visual_impaired=0
DISPOSITION:clean_effects=0
DISPOSITION:attached_pic=1
[/STREAM]
[STREAM]
index=1
codec_name=h264
codec_long_name=H.264 / AVC / MPEG-4 AVC / MPEG-4 part 10
profile=Main
codec_type=video
codec_time_base=16683/1000000
codec_tag_string=avc1
codec_tag=0x31637661
width=1920
height=1080
coded_width=1920
coded_height=1088
has_b_frames=0
sample_aspect_ratio=0:1
display_aspect_ratio=0:1
pix_fmt=yuv420p
level=40
color_range=N/A
color_space=unknown
color_transfer=unknown
color_primaries=unknown
chroma_location=left
timecode=N/A
refs=1
is_avc=1
nal_length_size=4
id=N/A
r_frame_rate=30000/1001
avg_frame_rate=28612000/954511
time_base=1/60000
start_pts=0
start_time=0.000000
duration_ts=14317665
duration=238.627750
bit_rate=20000967
max_bit_rate=N/A
bits_per_raw_sample=8
nb_frames=7153
nb_read_frames=N/A
nb_read_packets=N/A
DISPOSITION:default=1
DISPOSITION:dub=0
DISPOSITION:original=0
DISPOSITION:comment=0
DISPOSITION:lyrics=0
DISPOSITION:karaoke=0
DISPOSITION:forced=0
DISPOSITION:hearing_impaired=0
DISPOSITION:visual_impaired=0
DISPOSITION:clean_effects=0
DISPOSITION:attached_pic=0
TAG:creation_time=2017-07-27 12:47:47
TAG:language=und
[/STREAM]
[STREAM]
index=2
codec_name=unknown
codec_long_name=unknown
profile=unknown
codec_type=data
codec_time_base=0/1
codec_tag_string=mett
codec_tag=0x7474656d
id=N/A
r_frame_rate=0/0
avg_frame_rate=0/0
time_base=1/60000
start_pts=0
start_time=0.000000
duration_ts=14317665
duration=238.627750
bit_rate=23021
max_bit_rate=N/A
bits_per_raw_sample=N/A
nb_frames=7153
nb_read_frames=N/A
nb_read_packets=N/A
DISPOSITION:default=1
DISPOSITION:dub=0
DISPOSITION:original=0
DISPOSITION:comment=0
DISPOSITION:lyrics=0
DISPOSITION:karaoke=0
DISPOSITION:forced=0
DISPOSITION:hearing_impaired=0
DISPOSITION:visual_impaired=0
DISPOSITION:clean_effects=0
DISPOSITION:attached_pic=0
TAG:creation_time=2017-07-27 12:47:47
TAG:language=und
[/STREAM]

To post a comment you must log in.
This report contains Public information  Edit
Everyone can see this information.

Other bug subscribers