Activity log for bug #540083

Date Who What changed Old value New value Message
2010-03-17 07:48:13 Mampir bug added bug
2010-03-17 07:48:13 Mampir attachment added A sample from an output file, when the input files are a set of PNG images http://launchpadlibrarian.net/41103957/ffmpeg2theora_png_out.png
2010-03-17 07:48:57 Mampir description When trying to convert a set of PNG image, the colors of the output OGV file become badly messed-up - see the attachment for an example. The input files in this example can be found at http://media.xiph.org/BBB/BBB-360-png/ and the example output should be similar to http://media.xiph.org/BBB/BBB-360-png/big_buck_bunny_00080.png Also the output file size becomes abnormally huge - 4.7 MB for 100 frames. The command that gives this result is: ffmpeg2theora bbb/big_buck_bunny_0%04d.png -o bbb.ogv When doing a similar command with a set of BMP image, the program quits with a small and useless output file and the following error: [bmp @ 0x12ecf40]declared file size is less than header size (0 < 54) Last message repeated 7 times [image2 @ 0x12eb8e0]MAX_READ_SIZE:5000000 reached Input #0, image2, from 'bmp/frame%04d.bmp': Duration: 00:00:04.04, start: 0.000000, bitrate: N/A Stream #0.0: Video: bmp, yuv420p, 25 fps, 25 tbr, 25 tbn, 25 tbc picture size invalid (0x0) Could not set keyframe interval to 64. Internal Theora library error. I'm using the binary "ffmpeg2theora-0.26.linux64.bin". When trying to convert a set of PNG image, the colors of the output OGV file become badly messed-up - see the attachment for an example. The input files in this example can be found at http://media.xiph.org/BBB/BBB-360-png/ and the example output should be similar to http://media.xiph.org/BBB/BBB-360-png/big_buck_bunny_00080.png Also the output file size becomes abnormally huge - 4.7 MB for 100 frames. The command that gives this result is: ffmpeg2theora bbb/big_buck_bunny_0%04d.png -o bbb.ogv When doing a similar command with a set of BMP image, the program quits with a small and useless output file and the following error:     [bmp @ 0x12ecf40]declared file size is less than header size (0 < 54)         Last message repeated 7 times     [image2 @ 0x12eb8e0]MAX_READ_SIZE:5000000 reached     Input #0, image2, from 'bmp/frame%04d.bmp':       Duration: 00:00:04.04, start: 0.000000, bitrate: N/A         Stream #0.0: Video: bmp, yuv420p, 25 fps, 25 tbr, 25 tbn, 25 tbc     picture size invalid (0x0)     Could not set keyframe interval to 64.     Internal Theora library error. I'm using the binary "ffmpeg2theora-0.26.linux64.bin". [code]test[/code]
2010-03-17 07:49:11 Mampir description When trying to convert a set of PNG image, the colors of the output OGV file become badly messed-up - see the attachment for an example. The input files in this example can be found at http://media.xiph.org/BBB/BBB-360-png/ and the example output should be similar to http://media.xiph.org/BBB/BBB-360-png/big_buck_bunny_00080.png Also the output file size becomes abnormally huge - 4.7 MB for 100 frames. The command that gives this result is: ffmpeg2theora bbb/big_buck_bunny_0%04d.png -o bbb.ogv When doing a similar command with a set of BMP image, the program quits with a small and useless output file and the following error:     [bmp @ 0x12ecf40]declared file size is less than header size (0 < 54)         Last message repeated 7 times     [image2 @ 0x12eb8e0]MAX_READ_SIZE:5000000 reached     Input #0, image2, from 'bmp/frame%04d.bmp':       Duration: 00:00:04.04, start: 0.000000, bitrate: N/A         Stream #0.0: Video: bmp, yuv420p, 25 fps, 25 tbr, 25 tbn, 25 tbc     picture size invalid (0x0)     Could not set keyframe interval to 64.     Internal Theora library error. I'm using the binary "ffmpeg2theora-0.26.linux64.bin". [code]test[/code] When trying to convert a set of PNG image, the colors of the output OGV file become badly messed-up - see the attachment for an example. The input files in this example can be found at http://media.xiph.org/BBB/BBB-360-png/ and the example output should be similar to http://media.xiph.org/BBB/BBB-360-png/big_buck_bunny_00080.png Also the output file size becomes abnormally huge - 4.7 MB for 100 frames. The command that gives this result is: ffmpeg2theora bbb/big_buck_bunny_0%04d.png -o bbb.ogv When doing a similar command with a set of BMP image, the program quits with a small and useless output file and the following error:     [bmp @ 0x12ecf40]declared file size is less than header size (0 < 54)         Last message repeated 7 times     [image2 @ 0x12eb8e0]MAX_READ_SIZE:5000000 reached     Input #0, image2, from 'bmp/frame%04d.bmp':       Duration: 00:00:04.04, start: 0.000000, bitrate: N/A         Stream #0.0: Video: bmp, yuv420p, 25 fps, 25 tbr, 25 tbn, 25 tbc     picture size invalid (0x0)     Could not set keyframe interval to 64.     Internal Theora library error. I'm using the binary "ffmpeg2theora-0.26.linux64.bin". <code>test</code>
2010-03-17 07:49:54 Mampir description When trying to convert a set of PNG image, the colors of the output OGV file become badly messed-up - see the attachment for an example. The input files in this example can be found at http://media.xiph.org/BBB/BBB-360-png/ and the example output should be similar to http://media.xiph.org/BBB/BBB-360-png/big_buck_bunny_00080.png Also the output file size becomes abnormally huge - 4.7 MB for 100 frames. The command that gives this result is: ffmpeg2theora bbb/big_buck_bunny_0%04d.png -o bbb.ogv When doing a similar command with a set of BMP image, the program quits with a small and useless output file and the following error:     [bmp @ 0x12ecf40]declared file size is less than header size (0 < 54)         Last message repeated 7 times     [image2 @ 0x12eb8e0]MAX_READ_SIZE:5000000 reached     Input #0, image2, from 'bmp/frame%04d.bmp':       Duration: 00:00:04.04, start: 0.000000, bitrate: N/A         Stream #0.0: Video: bmp, yuv420p, 25 fps, 25 tbr, 25 tbn, 25 tbc     picture size invalid (0x0)     Could not set keyframe interval to 64.     Internal Theora library error. I'm using the binary "ffmpeg2theora-0.26.linux64.bin". <code>test</code> When trying to convert a set of PNG image, the colors of the output OGV file become badly messed-up - see the attachment for an example. The input files in this example can be found at http://media.xiph.org/BBB/BBB-360-png/ and the example output should be similar to http://media.xiph.org/BBB/BBB-360-png/big_buck_bunny_00080.png Also the output file size becomes abnormally huge - 4.7 MB for 100 frames. The command that gives this result is: ffmpeg2theora bbb/big_buck_bunny_0%04d.png -o bbb.ogv When doing a similar command with a set of BMP image, the program quits with a small and useless output file and the following error:     [bmp @ 0x12ecf40]declared file size is less than header size (0 < 54)         Last message repeated 7 times     [image2 @ 0x12eb8e0]MAX_READ_SIZE:5000000 reached     Input #0, image2, from 'bmp/frame%04d.bmp':       Duration: 00:00:04.04, start: 0.000000, bitrate: N/A         Stream #0.0: Video: bmp, yuv420p, 25 fps, 25 tbr, 25 tbn, 25 tbc     picture size invalid (0x0)     Could not set keyframe interval to 64.     Internal Theora library error. I'm using the binary "ffmpeg2theora-0.26.linux64.bin". [[test]]
2010-03-17 07:50:04 Mampir description When trying to convert a set of PNG image, the colors of the output OGV file become badly messed-up - see the attachment for an example. The input files in this example can be found at http://media.xiph.org/BBB/BBB-360-png/ and the example output should be similar to http://media.xiph.org/BBB/BBB-360-png/big_buck_bunny_00080.png Also the output file size becomes abnormally huge - 4.7 MB for 100 frames. The command that gives this result is: ffmpeg2theora bbb/big_buck_bunny_0%04d.png -o bbb.ogv When doing a similar command with a set of BMP image, the program quits with a small and useless output file and the following error:     [bmp @ 0x12ecf40]declared file size is less than header size (0 < 54)         Last message repeated 7 times     [image2 @ 0x12eb8e0]MAX_READ_SIZE:5000000 reached     Input #0, image2, from 'bmp/frame%04d.bmp':       Duration: 00:00:04.04, start: 0.000000, bitrate: N/A         Stream #0.0: Video: bmp, yuv420p, 25 fps, 25 tbr, 25 tbn, 25 tbc     picture size invalid (0x0)     Could not set keyframe interval to 64.     Internal Theora library error. I'm using the binary "ffmpeg2theora-0.26.linux64.bin". [[test]] When trying to convert a set of PNG image, the colors of the output OGV file become badly messed-up - see the attachment for an example. The input files in this example can be found at http://media.xiph.org/BBB/BBB-360-png/ and the example output should be similar to http://media.xiph.org/BBB/BBB-360-png/big_buck_bunny_00080.png Also the output file size becomes abnormally huge - 4.7 MB for 100 frames. The command that gives this result is: ffmpeg2theora bbb/big_buck_bunny_0%04d.png -o bbb.ogv When doing a similar command with a set of BMP image, the program quits with a small and useless output file and the following error:     [bmp @ 0x12ecf40]declared file size is less than header size (0 < 54)         Last message repeated 7 times     [image2 @ 0x12eb8e0]MAX_READ_SIZE:5000000 reached     Input #0, image2, from 'bmp/frame%04d.bmp':       Duration: 00:00:04.04, start: 0.000000, bitrate: N/A         Stream #0.0: Video: bmp, yuv420p, 25 fps, 25 tbr, 25 tbn, 25 tbc     picture size invalid (0x0)     Could not set keyframe interval to 64.     Internal Theora library error. I'm using the binary "ffmpeg2theora-0.26.linux64.bin". ''test''
2010-03-17 07:50:11 Mampir description When trying to convert a set of PNG image, the colors of the output OGV file become badly messed-up - see the attachment for an example. The input files in this example can be found at http://media.xiph.org/BBB/BBB-360-png/ and the example output should be similar to http://media.xiph.org/BBB/BBB-360-png/big_buck_bunny_00080.png Also the output file size becomes abnormally huge - 4.7 MB for 100 frames. The command that gives this result is: ffmpeg2theora bbb/big_buck_bunny_0%04d.png -o bbb.ogv When doing a similar command with a set of BMP image, the program quits with a small and useless output file and the following error:     [bmp @ 0x12ecf40]declared file size is less than header size (0 < 54)         Last message repeated 7 times     [image2 @ 0x12eb8e0]MAX_READ_SIZE:5000000 reached     Input #0, image2, from 'bmp/frame%04d.bmp':       Duration: 00:00:04.04, start: 0.000000, bitrate: N/A         Stream #0.0: Video: bmp, yuv420p, 25 fps, 25 tbr, 25 tbn, 25 tbc     picture size invalid (0x0)     Could not set keyframe interval to 64.     Internal Theora library error. I'm using the binary "ffmpeg2theora-0.26.linux64.bin". ''test'' When trying to convert a set of PNG image, the colors of the output OGV file become badly messed-up - see the attachment for an example. The input files in this example can be found at http://media.xiph.org/BBB/BBB-360-png/ and the example output should be similar to http://media.xiph.org/BBB/BBB-360-png/big_buck_bunny_00080.png Also the output file size becomes abnormally huge - 4.7 MB for 100 frames. The command that gives this result is: ffmpeg2theora bbb/big_buck_bunny_0%04d.png -o bbb.ogv When doing a similar command with a set of BMP image, the program quits with a small and useless output file and the following error:     [bmp @ 0x12ecf40]declared file size is less than header size (0 < 54)         Last message repeated 7 times     [image2 @ 0x12eb8e0]MAX_READ_SIZE:5000000 reached     Input #0, image2, from 'bmp/frame%04d.bmp':       Duration: 00:00:04.04, start: 0.000000, bitrate: N/A         Stream #0.0: Video: bmp, yuv420p, 25 fps, 25 tbr, 25 tbn, 25 tbc     picture size invalid (0x0)     Could not set keyframe interval to 64.     Internal Theora library error. I'm using the binary "ffmpeg2theora-0.26.linux64.bin".
2010-03-17 07:50:38 Mampir description When trying to convert a set of PNG image, the colors of the output OGV file become badly messed-up - see the attachment for an example. The input files in this example can be found at http://media.xiph.org/BBB/BBB-360-png/ and the example output should be similar to http://media.xiph.org/BBB/BBB-360-png/big_buck_bunny_00080.png Also the output file size becomes abnormally huge - 4.7 MB for 100 frames. The command that gives this result is: ffmpeg2theora bbb/big_buck_bunny_0%04d.png -o bbb.ogv When doing a similar command with a set of BMP image, the program quits with a small and useless output file and the following error:     [bmp @ 0x12ecf40]declared file size is less than header size (0 < 54)         Last message repeated 7 times     [image2 @ 0x12eb8e0]MAX_READ_SIZE:5000000 reached     Input #0, image2, from 'bmp/frame%04d.bmp':       Duration: 00:00:04.04, start: 0.000000, bitrate: N/A         Stream #0.0: Video: bmp, yuv420p, 25 fps, 25 tbr, 25 tbn, 25 tbc     picture size invalid (0x0)     Could not set keyframe interval to 64.     Internal Theora library error. I'm using the binary "ffmpeg2theora-0.26.linux64.bin". When trying to convert a set of PNG image, the colors of the output OGV file become badly messed-up - see the attachment for an example. The input files for this example can be found at http://media.xiph.org/BBB/BBB-360-png/ and the example output should be similar to http://media.xiph.org/BBB/BBB-360-png/big_buck_bunny_00080.png Also the output file size becomes abnormally huge - 4.7 MB for 100 frames. The command that gives this result is: ffmpeg2theora bbb/big_buck_bunny_0%04d.png -o bbb.ogv When doing a similar command with a set of BMP image, the program quits with a small and useless output file and the following error:     [bmp @ 0x12ecf40]declared file size is less than header size (0 < 54)         Last message repeated 7 times     [image2 @ 0x12eb8e0]MAX_READ_SIZE:5000000 reached     Input #0, image2, from 'bmp/frame%04d.bmp':       Duration: 00:00:04.04, start: 0.000000, bitrate: N/A         Stream #0.0: Video: bmp, yuv420p, 25 fps, 25 tbr, 25 tbn, 25 tbc     picture size invalid (0x0)     Could not set keyframe interval to 64.     Internal Theora library error. I'm using the binary "ffmpeg2theora-0.26.linux64.bin".
2010-03-17 07:51:31 Mampir description When trying to convert a set of PNG image, the colors of the output OGV file become badly messed-up - see the attachment for an example. The input files for this example can be found at http://media.xiph.org/BBB/BBB-360-png/ and the example output should be similar to http://media.xiph.org/BBB/BBB-360-png/big_buck_bunny_00080.png Also the output file size becomes abnormally huge - 4.7 MB for 100 frames. The command that gives this result is: ffmpeg2theora bbb/big_buck_bunny_0%04d.png -o bbb.ogv When doing a similar command with a set of BMP image, the program quits with a small and useless output file and the following error:     [bmp @ 0x12ecf40]declared file size is less than header size (0 < 54)         Last message repeated 7 times     [image2 @ 0x12eb8e0]MAX_READ_SIZE:5000000 reached     Input #0, image2, from 'bmp/frame%04d.bmp':       Duration: 00:00:04.04, start: 0.000000, bitrate: N/A         Stream #0.0: Video: bmp, yuv420p, 25 fps, 25 tbr, 25 tbn, 25 tbc     picture size invalid (0x0)     Could not set keyframe interval to 64.     Internal Theora library error. I'm using the binary "ffmpeg2theora-0.26.linux64.bin". When trying to convert a set of PNG image, the colors of the output OGV file become badly messed-up - see the attachment for an example. The input files for this example can be found at http://media.xiph.org/BBB/BBB-360-png/ and the example output should be similar to http://media.xiph.org/BBB/BBB-360-png/big_buck_bunny_00080.png Also the output file size becomes abnormally huge - 4.7 MB for 100 frames. The command that gives this result is: ffmpeg2theora bbb/big_buck_bunny_0%04d.png -o bbb.ogv When doing a similar command with a set of BMP image, the program quits with a small and useless output file and the following error:     [bmp @ 0x12ecf40]declared file size is less than header size (0 < 54)         Last message repeated 7 times     [image2 @ 0x12eb8e0]MAX_READ_SIZE:5000000 reached     Input #0, image2, from 'bmp/frame%04d.bmp':       Duration: 00:00:04.04, start: 0.000000, bitrate: N/A         Stream #0.0: Video: bmp, yuv420p, 25 fps, 25 tbr, 25 tbn, 25 tbc     picture size invalid (0x0)     Could not set keyframe interval to 64.     Internal Theora library error. I'm using the binary "ffmpeg2theora-0.26.linux64.bin".
2010-03-17 07:51:38 Mampir description When trying to convert a set of PNG image, the colors of the output OGV file become badly messed-up - see the attachment for an example. The input files for this example can be found at http://media.xiph.org/BBB/BBB-360-png/ and the example output should be similar to http://media.xiph.org/BBB/BBB-360-png/big_buck_bunny_00080.png Also the output file size becomes abnormally huge - 4.7 MB for 100 frames. The command that gives this result is: ffmpeg2theora bbb/big_buck_bunny_0%04d.png -o bbb.ogv When doing a similar command with a set of BMP image, the program quits with a small and useless output file and the following error:     [bmp @ 0x12ecf40]declared file size is less than header size (0 < 54)         Last message repeated 7 times     [image2 @ 0x12eb8e0]MAX_READ_SIZE:5000000 reached     Input #0, image2, from 'bmp/frame%04d.bmp':       Duration: 00:00:04.04, start: 0.000000, bitrate: N/A         Stream #0.0: Video: bmp, yuv420p, 25 fps, 25 tbr, 25 tbn, 25 tbc     picture size invalid (0x0)     Could not set keyframe interval to 64.     Internal Theora library error. I'm using the binary "ffmpeg2theora-0.26.linux64.bin". When trying to convert a set of PNG image, the colors of the output OGV file become badly messed-up - see the attachment for an example. The input files for this example can be found at http://media.xiph.org/BBB/BBB-360-png/ and the example output should be similar to http://media.xiph.org/BBB/BBB-360-png/big_buck_bunny_00080.png Also the output file size becomes abnormally huge - 4.7 MB for 100 frames. The command that gives this result is: ffmpeg2theora bbb/big_buck_bunny_0%04d.png -o bbb.ogv When doing a similar command with a set of BMP image, the program quits with a small and useless output file and the following error:     [bmp @ 0x12ecf40]declared file size is less than header size (0 < 54)         Last message repeated 7 times     [image2 @ 0x12eb8e0]MAX_READ_SIZE:5000000 reached     Input #0, image2, from 'bmp/frame%04d.bmp':       Duration: 00:00:04.04, start: 0.000000, bitrate: N/A         Stream #0.0: Video: bmp, yuv420p, 25 fps, 25 tbr, 25 tbn, 25 tbc     picture size invalid (0x0)     Could not set keyframe interval to 64.     Internal Theora library error. I'm using the binary "ffmpeg2theora-0.26.linux64.bin".
2010-03-17 07:51:59 Mampir description When trying to convert a set of PNG image, the colors of the output OGV file become badly messed-up - see the attachment for an example. The input files for this example can be found at http://media.xiph.org/BBB/BBB-360-png/ and the example output should be similar to http://media.xiph.org/BBB/BBB-360-png/big_buck_bunny_00080.png Also the output file size becomes abnormally huge - 4.7 MB for 100 frames. The command that gives this result is: ffmpeg2theora bbb/big_buck_bunny_0%04d.png -o bbb.ogv When doing a similar command with a set of BMP image, the program quits with a small and useless output file and the following error:     [bmp @ 0x12ecf40]declared file size is less than header size (0 < 54)         Last message repeated 7 times     [image2 @ 0x12eb8e0]MAX_READ_SIZE:5000000 reached     Input #0, image2, from 'bmp/frame%04d.bmp':       Duration: 00:00:04.04, start: 0.000000, bitrate: N/A         Stream #0.0: Video: bmp, yuv420p, 25 fps, 25 tbr, 25 tbn, 25 tbc     picture size invalid (0x0)     Could not set keyframe interval to 64.     Internal Theora library error. I'm using the binary "ffmpeg2theora-0.26.linux64.bin". When trying to convert a set of PNG image, the colors of the output OGV file become badly messed-up - see the attachment for an example. The input files for this example can be found at http://media.xiph.org/BBB/BBB-360-png/ and the example output should be similar to http://media.xiph.org/BBB/BBB-360-png/big_buck_bunny_00080.png Also the output file size becomes abnormally huge - 4.7 MB for 100 frames. The command that gives this result is: ffmpeg2theora bbb/big_buck_bunny_0%04d.png -o bbb.ogv When doing a similar command with a set of BMP image, the program quits with a small and useless output file and the following error:     [bmp @ 0x12ecf40]declared file size is less than header size (0 < 54)         Last message repeated 7 times     [image2 @ 0x12eb8e0]MAX_READ_SIZE:5000000 reached     Input #0, image2, from 'bmp/frame%04d.bmp':       Duration: 00:00:04.04, start: 0.000000, bitrate: N/A         Stream #0.0: Video: bmp, yuv420p, 25 fps, 25 tbr, 25 tbn, 25 tbc     picture size invalid (0x0)     Could not set keyframe interval to 64.     Internal Theora library error. I'm using the binary "ffmpeg2theora-0.26.linux64.bin".
2010-03-17 07:57:53 Mampir description When trying to convert a set of PNG image, the colors of the output OGV file become badly messed-up - see the attachment for an example. The input files for this example can be found at http://media.xiph.org/BBB/BBB-360-png/ and the example output should be similar to http://media.xiph.org/BBB/BBB-360-png/big_buck_bunny_00080.png Also the output file size becomes abnormally huge - 4.7 MB for 100 frames. The command that gives this result is: ffmpeg2theora bbb/big_buck_bunny_0%04d.png -o bbb.ogv When doing a similar command with a set of BMP image, the program quits with a small and useless output file and the following error:     [bmp @ 0x12ecf40]declared file size is less than header size (0 < 54)         Last message repeated 7 times     [image2 @ 0x12eb8e0]MAX_READ_SIZE:5000000 reached     Input #0, image2, from 'bmp/frame%04d.bmp':       Duration: 00:00:04.04, start: 0.000000, bitrate: N/A         Stream #0.0: Video: bmp, yuv420p, 25 fps, 25 tbr, 25 tbn, 25 tbc     picture size invalid (0x0)     Could not set keyframe interval to 64.     Internal Theora library error. I'm using the binary "ffmpeg2theora-0.26.linux64.bin". When trying to convert a set of PNG image, the colors of the output OGV file become badly messed-up - see the attachment for an example. The input files for this example can be found at http://media.xiph.org/BBB/BBB-360-png/ and the example output should be similar to http://media.xiph.org/BBB/BBB-360-png/big_buck_bunny_00080.png Also the output file size becomes abnormally huge - 4.7 MB for 100 frames. The command that gives this result is:     ffmpeg2theora bbb/big_buck_bunny_0%04d.png -o bbb.ogv When doing a similar command with a set of BMP image, the program quits with a small and useless output file and the following error:     [bmp @ 0x12ecf40]declared file size is less than header size (0 < 54)         Last message repeated 7 times     [image2 @ 0x12eb8e0]MAX_READ_SIZE:5000000 reached     Input #0, image2, from 'bmp/frame%04d.bmp':       Duration: 00:00:04.04, start: 0.000000, bitrate: N/A         Stream #0.0: Video: bmp, yuv420p, 25 fps, 25 tbr, 25 tbn, 25 tbc     picture size invalid (0x0)     Could not set keyframe interval to 64.     Internal Theora library error. I'm using the binary "ffmpeg2theora-0.26.linux64.bin". Conversion of TGA, JPEG and TIFF image sets works as expected.